<?xml version="1.0" standalone="no"?>
<!DOCTYPE svg PUBLIC "-//W3C//DTD SVG 1.1//EN" "http://www.w3.org/Graphics/SVG/1.1/DTD/svg11.dtd">
<svg xmlns="http://www.w3.org/2000/svg">
<metadata>Copyright (C) 2016 by original authors @ fontello.com</metadata>
<defs>
<font id="customizr" horiz-adv-x="1000" >
<font-face font-family="customizr" font-weight="400" font-stretch="normal" units-per-em="1000" ascent="850" descent="-150" />
<missing-glyph horiz-adv-x="1000" />
<glyph glyph-name="close" unicode="&#xe800;" d="M922-179l-423 424-420-421-73 74 420 420-423 423 73 73 423-423 420 420 73-73-420-420 423-423-73-74z" horiz-adv-x="1000" />

<glyph glyph-name="shoppingcart" unicode="&#xe801;" d="M767 620l-1 4c-8 56-32 106-69 147-48 52-112 81-180 81h-34c-68 0-132-29-180-83-37-40-60-91-69-145l-1-4h-116v-766h766v766h-116z m-449 6c19 83 89 144 165 144h34c79 0 147-59 166-144l1-6h-367l1 6z m483-691h-602v603h602v-603z m-126 514h-348v-82h348v82z" horiz-adv-x="1000" />

<glyph glyph-name="search" unicode="&#xe802;" d="M1008-77l-214 212c63 78 98 175 98 277 0 117-46 228-129 311-83 82-193 128-311 128-117 0-227-46-310-129-83-83-129-193-129-310s46-228 129-311c83-83 193-129 310-129 97 0 190 31 266 89l215-213 75 75z m-889 489c0 183 150 333 333 333 184 0 334-150 334-333s-150-334-334-334c-183 0-333 150-333 334z" horiz-adv-x="1000" />

<glyph glyph-name="grid-empty" unicode="&#xe803;" d="M430 387h-398v398h398v-398z m-304 93h211v211h-211v-211z m840-93h-398v398h398v-398z m-305 93h211v211h-211v-211z m-231-629h-398v398h398v-398z m-304 93h211v212h-211v-212z m840-93h-398v398h398v-398z m-305 93h211v212h-211v-212z" horiz-adv-x="1000" />

<glyph glyph-name="grid-filled" unicode="&#xe804;" d="M0-150l0 250 250 0 0-250-250 0z m0 375l0 250 250 0 0-250-250 0z m0 375l0 250 250 0 0-250-250 0z m375-750l0 250 250 0 0-250-250 0z m0 375l0 250 250 0 0-250-250 0z m0 375l0 250 250 0 0-250-250 0z m375-750l0 250 250 0 0-250-250 0z m0 375l0 250 250 0 0-250-250 0z m0 375l0 250 250 0 0-250-250 0z" horiz-adv-x="1000" />

<glyph glyph-name="plus" unicode="&#xe805;" d="M858 308h-316v-316h-84v316h-316v84h316v316h84v-316h316v-84z" horiz-adv-x="1000" />

<glyph glyph-name="quotes" unicode="&#xe808;" d="M420 667v-395l-245-239-66 66 218 212v26h-249v330h249v0h93z m409 0l0 0-249 0v-330h249v-26l-218-212 66-66 245 239v395h-93z" horiz-adv-x="1000" />

<glyph glyph-name="expand-thin" unicode="&#xe809;" d="M36 214c-20 0-36-16-36-36v-286 0c0-5 1-9 3-13 2-4 4-8 7-12 0 0 0 0 0 0 0 0 0 0 0 0 3-4 7-6 11-8 5-2 10-2 14-2h286c20 0 36 16 36 36 0 20-16 36-36 36h-199l296 296c14 14 14 36 0 50-14 14-37 14-51 0l-296-296v200c0 19-16 35-35 35z m961 621c-4 8-10 15-19 19-5 2-9 3-13 3h-286c-20 0-36-16-36-36 0-20 16-36 36-36h199l-296-296c-14-14-14-36 0-50 14-14 37-14 51 0l296 296v-200c0-20 16-36 36-36 20 0 36 16 36 36v286c-1 4-2 9-4 14z" horiz-adv-x="1000" />

<glyph glyph-name="plus-thin" unicode="&#xe80a;" d="M962 372c-6 5-13 9-22 9l-409 0v427c0 17-14 30-31 30-8 0-16-3-22-9-5-5-8-13-8-21l0-427h-410c-17 0-31-14-31-31 0-8 3-16 9-22 6-5 14-8 22-8l410 0v-428c0-8 3-16 8-21 6-6 14-9 22-9h0c0 0 0 0 0 0 8 0 16 3 22 9 5 5 9 13 9 21l0 428 409 0c17 0 31 13 31 30 0 8-3 16-9 22z" horiz-adv-x="1000" />

<glyph glyph-name="close-thin" unicode="&#xe80b;" d="M958-51l-403 403 387 386c13 13 13 34 0 47-13 13-35 13-48 0l-386-386-403 403c-13 13-34 13-47 0-13-14-13-35 0-48l402-402-386-387c-13-13-13-34 0-47 7-7 15-10 24-10 8 0 17 3 24 10l386 386 402-402c7-7 15-10 24-10 9 0 17 3 24 10 13 13 13 34 0 47" horiz-adv-x="1000" />

<glyph glyph-name="arrow-l" unicode="&#xe80d;" d="M995 323h-882l226-228-42-42-298 301 298 301 42-42-226-230h882v-60z" horiz-adv-x="1000" />

<glyph glyph-name="arrow-r" unicode="&#xe80e;" d="M-1 383h882l-227 229 43 42 298-301-298-300-43 42 226 228h-881v60z" horiz-adv-x="1000" />

<glyph glyph-name="down-small" unicode="&#xe80f;" d="M600 439q0-7-6-12l-260-261q-5-5-13-5t-12 5l-260 261q-6 5-6 12t6 13l28 28q5 6 12 6t13-6l219-219 220 219q5 6 13 6t12-6l28-28q6-5 6-13z" horiz-adv-x="642.9" />

<glyph glyph-name="up-small" unicode="&#xe810;" d="M600 189q0-7-6-12l-28-28q-5-6-12-6t-13 6l-220 219-219-219q-5-6-13-6t-12 6l-28 28q-6 5-6 12t6 13l260 260q5 6 12 6t13-6l260-260q6-5 6-13z" horiz-adv-x="642.9" />

<glyph glyph-name="text" unicode="&#xe811;" d="M1004 725h-1007v125h1007v-125z m-4-750h-1003v-125h1003v125z m-457 438h-546v-125h546v125z" horiz-adv-x="1000" />

<glyph glyph-name="link" unicode="&#xe812;" d="M136 230l-145 144 477 477 151-151-77-78-74 74-321-322 67-67-78-77z m847 106l-150 150-78-78 73-72-322-321-64 64-78-78 142-142 477 477z m0 445l-78 78-368-368 77-78 369 368z m-392-314m-156-234l-78 78-365-365 78-77 365 364z" horiz-adv-x="992" />

<glyph glyph-name="left-open-big" unicode="&#xe813;" d="M452-20q26-26 0-48-26-26-48 0l-392 394q-24 24 0 50l392 394q22 26 48 0 26-22 0-48l-358-372z" horiz-adv-x="465" />

<glyph glyph-name="right-open-big" unicode="&#xe814;" d="M13-20l358 370-358 372q-26 26 0 48 26 26 48 0l392-394q24-26 0-50l-392-394q-22-26-48 0-26 22 0 48z" horiz-adv-x="465" />

<glyph glyph-name="expand-small" unicode="&#xe815;" d="M359 238l-95-95 1-1 95 95-1 1z m557 322v118l-183-183 1-1-96-95 0 1-58 57-1 1 278 277h-116l0 83 258-1 0-257h-83z m-498-382l-58 59-95-95-183-184v119h-83l0-258 258 0v82l-116 0 277 277z" horiz-adv-x="1000" />

<glyph glyph-name="expand" unicode="&#xe816;" d="M141-100l283 0v-82l-425 0 0 425h83v-286l287 288 58-59-286-286z m430 549l58-58 287 287v-285h83l0 425-425 0v-83l283 0-286-286z" horiz-adv-x="1000" />

<glyph glyph-name="edit" unicode="&#xe817;" d="M60-153c-10 0-21 6-29 11-10 10-13 26-10 39l73 222c3 5 5 10 10 16l679 678c16 16 40 16 55 0l149-146c8-8 10-18 10-28s-5-21-10-29l-679-679c-5-5-10-8-16-11l-221-73c-3 3-8 0-11 0z m107 241l-47-139 139 47 644 643-94 91-642-642z" horiz-adv-x="1003" />

<glyph glyph-name="arrow-r-long" unicode="&#xe819;" d="M63 329v49h847l-120 120 35 34 178-178-178-178-35 35 119 118-846 0z" horiz-adv-x="1000" />

<glyph glyph-name="arrow-l-long" unicode="&#xe81a;" d="M94 329l118-118-34-35-178 178 178 178 34-34-119-120h847v-49l-846 0z" horiz-adv-x="1000" />

<glyph glyph-name="article" unicode="&#xe81c;" d="M911 685l-893 0 0 112 893 0 0-112z m-335-223l-558 0 0 112 558 0 0-112z m335-225l-893 0 0 111 893 0 0-111z m-893-277q0 56 56 56t56-56q0-57-56-57t-56 57z m280 56q22 0 39-17t16-39-16-40-39-17q-24 0-40 17t-17 40 17 39 40 17z m166-56q0 56 57 56 55 0 55-56 0-57-55-57-57 0-57 57z" horiz-adv-x="928" />
</font>
</defs>
</svg>
